<?xml version="1.0" standalone="no"?>
<!DOCTYPE svg PUBLIC "-//W3C//DTD SVG 1.1//EN" "http://www.w3.org/Graphics/SVG/1.1/DTD/svg11.dtd" >
<svg xmlns="http://www.w3.org/2000/svg">
<metadata></metadata>
<defs>
<font id="verblight" horiz-adv-x="1310" >
<font-face units-per-em="2048" ascent="1638" descent="-410" />
<missing-glyph horiz-adv-x="569" />
<glyph horiz-adv-x="2048" />
<glyph horiz-adv-x="2048" />
<glyph unicode="&#xd;" horiz-adv-x="2048" />
<glyph unicode=" "  horiz-adv-x="569" />
<glyph unicode="&#x09;" horiz-adv-x="569" />
<glyph unicode="&#xa0;" horiz-adv-x="569" />
<glyph unicode="!" horiz-adv-x="532" d="M186 0v211h162v-211h-162zM188 1434h154l-35 -1016h-82z" />
<glyph unicode="&#x22;" horiz-adv-x="909" d="M152 1434h145l-27 -523h-94zM524 1434h146l-27 -523h-94z" />
<glyph unicode="#" horiz-adv-x="1531" d="M100 381v106h303l72 457h-287v107h304l61 383h111l-62 -383h428l62 383h108l-59 -383h289v-107h-306l-71 -457h288v-106h-305l-59 -381h-111l60 381h-428l-60 -381h-110l59 381h-287zM514 487h428l72 457h-428z" />
<glyph unicode="$" horiz-adv-x="1216" d="M100 145l66 103q84 -50 190 -91t207 -55v588q-172 57 -243 97q-167 94 -185 258q-2 20 -2 42q0 171 123 268.5t307 100.5v184h105v-190q212 -27 397 -123l-64 -102q-162 81 -333 106v-536q53 -17 92 -31.5t89.5 -37.5t86.5 -46t73.5 -56.5t61 -71t38.5 -87t15 -105.5 q0 -93 -38.5 -167t-104 -119.5t-145 -70t-168.5 -26.5v-182h-105v189q-125 14 -247.5 59t-215.5 102zM268 1096q0 -46 15.5 -83t39 -62.5t65 -49.5t79.5 -39t96 -35v512q-126 -3 -210.5 -64.5t-84.5 -178.5zM668 94q133 2 227 69t94 189q0 57 -23 103t-69 82t-99 62t-130 54 v-559z" />
<glyph unicode="%" horiz-adv-x="2011" d="M92 1071q0 187 98.5 286t262.5 99q165 0 263.5 -99t98.5 -286q0 -185 -98.5 -284t-263.5 -99q-164 0 -262.5 99t-98.5 284zM209 1071q0 -137 64 -212t180 -75q117 0 182 74.5t65 212.5q0 139 -64.5 214t-182.5 75q-116 0 -180 -75t-64 -214zM567 0l756 1434h119 l-756 -1434h-119zM1194 360q0 187 98 286t262 99q165 0 264 -99t99 -286q0 -185 -99 -284t-264 -99q-163 0 -261.5 99t-98.5 284zM1311 360q0 -137 63.5 -211.5t179.5 -74.5q118 0 183 74.5t65 211.5q0 139 -65 214t-183 75q-116 0 -179.5 -75t-63.5 -214z" />
<glyph unicode="&#x26;" horiz-adv-x="1398" d="M152 348q0 60 18 114.5t44.5 95t71.5 83.5t82 71t93 66q-48 49 -75 81.5t-61.5 82t-50.5 102t-16 109.5q0 78 31.5 138.5t83 95t109.5 52t118 17.5q133 0 226.5 -79t93.5 -216q0 -52 -16 -101t-40 -87t-63 -78t-74.5 -68.5t-85.5 -64.5l383 -393q99 174 127 387h133 q-14 -110 -57 -238t-115 -239l272 -279h-167l-179 182q-183 -205 -446 -205q-188 0 -314 100t-126 271zM281 360q0 -43 16 -87.5t50 -87.5t97.5 -70t147.5 -27q213 0 362 180l-411 426q-50 -35 -81.5 -59.5t-69.5 -59.5t-59.5 -65.5t-36.5 -69.5t-15 -80zM385 1151 q0 -45 15 -88.5t45 -85t54 -68.5t62 -65q54 37 91 67t72.5 69.5t53 84t17.5 94.5q0 80 -49.5 134.5t-147.5 54.5q-99 0 -156 -56t-57 -141z" />
<glyph unicode="'" horiz-adv-x="475" d="M152 1434h145l-27 -523h-94z" />
<glyph unicode="(" horiz-adv-x="626" d="M160 53v1317q0 43 1 68t6 56t13.5 49.5t25 41t40 37.5t58.5 32.5t80 32.5t105 31l41 -94q-37 -12 -64 -21t-51.5 -19.5t-40 -17.5t-29.5 -19t-22 -19t-14.5 -22.5t-9 -25t-4.5 -31t-2 -35.5v-44v-1315v-44t2 -35.5t4.5 -31t9 -25t14.5 -22.5t22 -19t29.5 -19t40 -17.5 t51.5 -19.5t64 -21l-41 -94q-60 16 -105 31t-80 32.5t-58.5 32t-40 37t-25 40.5t-13.5 49t-6 56t-1 68z" />
<glyph unicode=")" horiz-adv-x="626" d="M96 -199q63 20 100 33.5t66.5 32t41.5 30t20 40t9 49.5t1 69v1315q0 48 -1 69t-9 49.5t-20 40t-41.5 30t-66.5 32t-100 33.5l41 94q60 -16 105 -31t80 -32.5t58.5 -32t40 -37t25.5 -40.5t14 -49t6 -56.5t1 -67.5v-1317q0 -42 -1 -67.5t-6 -56.5t-14 -49.5t-25.5 -41 t-40 -37.5t-58.5 -32.5t-80 -32.5t-105 -31z" />
<glyph unicode="*" horiz-adv-x="978" d="M127 913l299 134l-297 139l64 104l266 -190l-31 317h123l-29 -315l264 186l62 -106l-299 -133l299 -138l-64 -104l-262 186l29 -315h-123l31 317l-269 -186z" />
<glyph unicode="+" d="M145 629v106h455v406h109v-406h456v-106h-456v-404h-109v404h-455z" />
<glyph unicode="," horiz-adv-x="497" d="M162 -207l90 207h-74v217h154l22 -225l-141 -250z" />
<glyph unicode="-" horiz-adv-x="888" d="M164 524v117h559v-117h-559z" />
<glyph unicode="." horiz-adv-x="487" d="M162 0v217h162v-217h-162z" />
<glyph unicode="/" horiz-adv-x="903" d="M53 -184l686 1802h113l-686 -1802h-113z" />
<glyph unicode="0" horiz-adv-x="1325" d="M141 717q0 357 133.5 548t389.5 191t387 -190.5t131 -548.5t-131 -549t-387 -191t-389.5 191.5t-133.5 548.5zM279 717q0 -195 38.5 -332.5t126 -217t220.5 -79.5t220 79.5t125 217t38 332.5q0 145 -22 258t-67.5 196.5t-119.5 127.5t-174 44q-197 0 -291 -165t-94 -461z " />
<glyph unicode="1" horiz-adv-x="712" d="M55 1253l332 181h117v-1434h-133v1292l-258 -135z" />
<glyph unicode="2" horiz-adv-x="1165" d="M111 0v104q0 69 14.5 129t45 110.5t64.5 91.5t85.5 83t95 73t106.5 73q10 6 15.5 10t14 9.5t15.5 10.5q65 45 103.5 73t88 71.5t76 79.5t45.5 82.5t19 95.5q0 108 -80.5 175.5t-220.5 67.5q-111 0 -212.5 -39.5t-168.5 -87.5l-67 93q211 151 452 151q194 0 312 -97 t118 -261q0 -88 -31 -162t-107 -145.5t-126.5 -109.5t-165.5 -115q-14 -10 -22 -15.5t-20.5 -13.5t-22.5 -15q-62 -42 -99 -70.5t-77 -67t-61 -75t-34.5 -85.5t-13.5 -107h782v-117h-923z" />
<glyph unicode="3" horiz-adv-x="1181" d="M84 117l63 100q60 -39 175.5 -81t230.5 -42q156 0 260.5 83.5t104.5 219.5q0 70 -29.5 127.5t-77.5 94.5t-110.5 62.5t-125.5 36.5t-126 11h-64v119h74q103 0 191 29.5t146 92.5t58 148q0 103 -78.5 162t-210.5 59q-183 0 -356 -118l-62 90q23 17 56 36.5t90 46.5 t133 44.5t154 17.5q191 0 299 -97t108 -235q0 -66 -27 -126.5t-93 -117t-165 -89.5q155 -37 254 -142.5t99 -251.5q0 -80 -30.5 -154t-89 -134t-154 -96t-214.5 -36q-143 0 -273.5 45t-209.5 95z" />
<glyph unicode="4" horiz-adv-x="1249" d="M74 330v106l700 998h170v-988h221v-116h-221v-330h-133v330h-737zM217 446h594v859z" />
<glyph unicode="5" horiz-adv-x="1159" d="M106 115l64 102q30 -20 74 -43.5t129 -50.5t159 -27q98 0 182.5 42.5t137.5 123.5t53 184q0 144 -96.5 242t-259.5 98q-154 0 -313 -92l-72 37l78 703h743v-117h-639l-41 -479q119 63 264 63q142 0 251 -62.5t165.5 -165.5t56.5 -229q0 -90 -32 -172.5t-92 -149 t-157 -106t-216 -39.5q-212 0 -439 138z" />
<glyph unicode="6" horiz-adv-x="1239" d="M135 571q-1 213 60 385.5t163.5 279.5t230 163.5t265.5 56.5q46 0 92 -5.5t69 -10.5l23 -6l-32 -111q-68 18 -148 18q-77 0 -150.5 -21.5t-143.5 -69t-126.5 -116.5t-98 -170.5t-58.5 -224.5q23 28 54.5 54.5t80 55.5t116.5 46.5t144 17.5q108 0 195.5 -36.5t143.5 -99.5 t85.5 -144.5t29.5 -173.5q0 -130 -56.5 -238.5t-167.5 -176t-257 -67.5q-102 0 -188 34t-145.5 91.5t-100.5 134t-60.5 161t-19.5 173.5zM270 565q0 -75 14 -143t44 -128.5t73.5 -105t106.5 -70.5t139 -26q84 0 152.5 32t110.5 84.5t64.5 117t22.5 133.5q0 51 -11.5 99 t-38 93t-65 78.5t-96 53.5t-127.5 20q-73 0 -140.5 -21.5t-116 -56t-82.5 -72.5t-50 -75v-13z" />
<glyph unicode="7" horiz-adv-x="1007" d="M61 1317v117h904v-101q-11 -14 -30 -39t-74.5 -107t-105.5 -167t-111 -212t-105.5 -249.5t-74.5 -271.5t-30 -287h-143q0 123 27 259t66 251.5t95.5 239t103 208.5t102 174t78 121.5t44.5 63.5h-746z" />
<glyph unicode="8" horiz-adv-x="1261" d="M119 365q0 265 356 407q-272 117 -272 340q0 156 119.5 250t306.5 94q189 0 309.5 -94t120.5 -250q0 -222 -275 -340q359 -144 359 -407q0 -119 -70 -208.5t-185.5 -134.5t-258.5 -45t-257.5 45t-183.5 134t-69 209zM256 369q0 -128 107.5 -203.5t265.5 -75.5 q161 0 269 75.5t108 203.5q0 54 -23 102.5t-58 83t-87.5 67t-100.5 53.5t-108 42q-76 -27 -134 -55.5t-116.5 -70.5t-90.5 -98.5t-32 -123.5zM334 1104q0 -47 21 -88.5t50 -69t74 -53t77 -38.5t75 -28q43 15 75 28t77 38.5t74 53t50 69t21 88.5q0 101 -85 171.5t-214 70.5 q-126 0 -210.5 -70.5t-84.5 -171.5z" />
<glyph unicode="9" horiz-adv-x="1239" d="M109 975q0 129 57 237.5t168.5 176t257.5 67.5q127 0 227.5 -51.5t161.5 -137t92.5 -189t32.5 -216.5q1 -213 -60.5 -385.5t-164 -279.5t-230 -163.5t-266.5 -56.5q-46 0 -92 5.5t-69 11.5l-23 6l35 111q65 -19 145 -19q97 0 188 35.5t171 105.5t137.5 188.5t78.5 270.5 q-22 -28 -54 -54.5t-80.5 -54.5t-116 -45.5t-142.5 -17.5q-143 0 -248 64t-155.5 165.5t-50.5 225.5zM242 975q0 -51 11.5 -99t38 -93t65 -78.5t96 -53.5t127.5 -20q138 0 243.5 69t145.5 152v16q0 94 -23 177.5t-67.5 150.5t-118 106t-166.5 39q-85 0 -154 -31.5t-111 -84 t-64.5 -117t-22.5 -133.5z" />
<glyph unicode=":" horiz-adv-x="493" d="M166 0v217h162v-217h-162zM166 715v217h162v-217h-162z" />
<glyph unicode=";" horiz-adv-x="528" d="M176 -207l90 207h-73v217h153l23 -225l-142 -250zM190 715v217h162v-217h-162z" />
<glyph unicode="&#x3c;" d="M117 633v102l1018 432v-129l-875 -354l875 -356v-129z" />
<glyph unicode="=" d="M145 449v108h1020v-108h-1020zM145 813v107h1020v-107h-1020z" />
<glyph unicode="&#x3e;" d="M174 201v129l875 354l-875 356v129l1018 -434v-102z" />
<glyph unicode="?" horiz-adv-x="1019" d="M76 1307q82 58 199.5 103.5t242.5 45.5q79 0 150.5 -21.5t130 -62t93 -107t34.5 -149.5q0 -298 -441 -409l-10 -289h-100l-13 364q81 18 143.5 37.5t119 47.5t92.5 61t57 77.5t21 98.5q0 112 -82 173.5t-207 61.5q-164 0 -363 -122zM346 0v211h158v-211h-158z" />
<glyph unicode="@" horiz-adv-x="1984" d="M125 518q0 186 63 348.5t177 282t284.5 188t374.5 68.5q206 0 368.5 -65.5t268 -183.5t161 -279.5t56.5 -356.5q-2 -249 -104 -405t-281 -156q-68 0 -118 23t-75.5 61.5t-37.5 75.5t-15 80q-164 -150 -348 -150q-54 0 -104 15t-94.5 48t-71.5 93.5t-27 142.5 q0 79 25.5 139.5t69.5 97t98 54.5t116 18q36 0 86.5 -7t87.5 -14t91 -19t69 -15v121q0 113 -43.5 163t-157.5 50q-138 0 -329 -84l-51 88q209 92 391 92q301 0 301 -295v-440q0 -45 1 -70.5t9 -64t22.5 -60t43.5 -37.5t71 -16q34 0 70 13t75.5 47.5t70.5 86t51 136t20 190.5 q0 137 -29.5 256.5t-91.5 219.5t-152 171.5t-217 111.5t-280 40q-152 0 -283 -42t-226 -116.5t-163 -175t-101.5 -220t-33.5 -249.5q0 -167 55 -314t152.5 -255t241.5 -170t313 -62q71 0 137 9.5t110.5 23t79 27.5t50.5 23l16 10l53 -66q-6 -5 -18 -12t-54 -26.5t-89.5 -34 t-124 -26.5t-158.5 -12q-151 0 -285.5 44t-237 125t-177 190t-113.5 243.5t-39 282.5zM715 348q0 -103 57 -153t148 -50q92 0 170 41.5t155 114.5v227q-19 3 -79.5 14.5t-115.5 19t-100 7.5q-123 0 -179 -63t-56 -158z" />
<glyph unicode="A" horiz-adv-x="1378" d="M57 0l561 1434h142l561 -1434h-143l-140 373h-698l-139 -373h-144zM383 487h612l-307 818z" />
<glyph unicode="B" horiz-adv-x="1353" d="M207 0v1434h473q230 0 355.5 -92t125.5 -259q0 -73 -25 -134.5t-64.5 -99.5t-80.5 -60.5t-80 -28.5q39 -6 79.5 -20t87 -43.5t81.5 -69.5t58.5 -104t23.5 -142q0 -179 -119 -280t-342 -101h-573zM340 113h434q165 0 250.5 78.5t85.5 207.5q0 148 -108 223.5t-314 75.5 h-348v-585zM340 809h336q158 0 256 65.5t98 194.5q0 115 -85 183.5t-257 68.5h-348v-512z" />
<glyph unicode="C" horiz-adv-x="1308" d="M137 717q0 189 45 334t123 231.5t176 130t211 43.5q73 0 147 -18t144.5 -52t122.5 -65.5t117 -75.5l-74 -96q-54 37 -95.5 62.5t-104.5 57.5t-127 49t-126 17q-187 0 -303.5 -164.5t-116.5 -453.5t116.5 -454t303.5 -165q62 0 126 17t127 49.5t104 57.5t96 63l74 -97 q-65 -44 -117 -75.5t-122.5 -65.5t-144.5 -52t-147 -18q-113 0 -211 43.5t-176 130.5t-123 232t-45 334z" />
<glyph unicode="D" horiz-adv-x="1425" d="M207 0v1434h420q661 0 661 -717t-661 -717h-420zM340 117h283q272 0 398 145.5t126 454.5t-126 454.5t-398 145.5h-283v-1200z" />
<glyph unicode="E" horiz-adv-x="1206" d="M207 0v1434h874v-117h-741v-543h614v-115h-614v-542h754v-117h-887z" />
<glyph unicode="F" horiz-adv-x="1150" d="M207 0v1434h874v-117h-741v-543h596v-117h-596v-657h-133z" />
<glyph unicode="G" horiz-adv-x="1427" d="M137 717q0 152 30 276t81.5 209t122.5 143t151.5 84.5t169.5 26.5q149 0 284.5 -62.5t270.5 -162.5l-78 -98q-63 44 -98 66.5t-104.5 60.5t-136 56.5t-132.5 18.5q-187 0 -304.5 -165t-117.5 -453q0 -287 116.5 -455t305.5 -168q196 0 445 225v336h-416v113h547v-768 h-131v178q-239 -201 -457 -201q-111 0 -207.5 43.5t-174 130.5t-122.5 232.5t-45 333.5z" />
<glyph unicode="H" horiz-adv-x="1443" d="M207 0v1434h133v-625h764v625h133v-1434h-133v694h-764v-694h-133z" />
<glyph unicode="I" horiz-adv-x="548" d="M207 0v1434h133v-1434h-133z" />
<glyph unicode="J" horiz-adv-x="550" d="M-31 -178l79.5 26.5t59 24.5t43 22t28 25t18 27t8.5 35t3.5 41t0.5 53v1358h135v-1354q0 -66 -1.5 -95t-11 -71.5t-29 -62.5t-56.5 -47t-93 -46t-139 -41z" />
<glyph unicode="K" d="M207 0v1434h133v-846l709 846h161l-585 -693l655 -741h-164l-571 649l-205 -241v-408h-133z" />
<glyph unicode="L" horiz-adv-x="1112" d="M207 0v1434h133v-1317h719v-117h-852z" />
<glyph unicode="M" horiz-adv-x="1712" d="M207 0v1434h141l508 -1045l506 1045h143v-1434h-133v1208l-469 -968h-94l-469 966v-1206h-133z" />
<glyph unicode="N" horiz-adv-x="1476" d="M207 0v1434h139l791 -1235v1235h133v-1434h-140l-790 1235v-1235h-133z" />
<glyph unicode="O" horiz-adv-x="1495" d="M137 717q0 126 20.5 234t66.5 202t116 160.5t173.5 104.5t234.5 38t234.5 -38t173 -104.5t115.5 -160.5t66.5 -202t20.5 -234q0 -124 -20.5 -232t-66.5 -202.5t-115.5 -161.5t-173.5 -105.5t-234 -38.5t-234 38.5t-174 105.5t-116 161.5t-66.5 202.5t-20.5 232zM276 717 q0 -107 14.5 -197t49 -170t88 -135t135 -87t185.5 -32t185.5 32t135 87t88.5 135t49.5 170t14.5 197q0 134 -24.5 242t-78 195t-147.5 135t-223 48t-223 -48t-147 -135t-77.5 -195t-24.5 -242z" />
<glyph unicode="P" horiz-adv-x="1298" d="M207 0v1434h487q90 0 165.5 -13t142 -44.5t113 -80t73 -123t26.5 -169.5q0 -96 -26.5 -170.5t-73 -123t-113 -80t-142 -44.5t-165.5 -13h-354v-573h-133zM340 690h362q83 0 148.5 16.5t117.5 52t80.5 97.5t28.5 148q0 85 -28.5 147t-80.5 97.5t-118 52t-148 16.5h-362 v-627z" />
<glyph unicode="Q" horiz-adv-x="1495" d="M137 717q0 126 20.5 234t66.5 202t116 160.5t173.5 104.5t234.5 38t234.5 -38t173 -104.5t115.5 -160.5t66.5 -202t20.5 -234q0 -137 -25.5 -254t-79 -215t-143.5 -164.5t-211 -91.5l248 -201l-94 -96l-305 282q-130 0 -234 38.5t-174 105.5t-116 161.5t-66.5 202.5 t-20.5 232zM276 717q0 -107 14.5 -197t49 -170t88 -135t135 -87t185.5 -32t185.5 32t135 87t88.5 135t49.5 170t14.5 197q0 134 -24.5 242t-78 195t-147.5 135t-223 48t-223 -48t-147 -135t-77.5 -195t-24.5 -242z" />
<glyph unicode="R" horiz-adv-x="1384" d="M207 0v1434h532q90 0 166.5 -12.5t143.5 -42.5t113 -75.5t73 -115t27 -158.5q0 -95 -30.5 -168.5t-86 -120.5t-126.5 -73.5t-159 -36.5l404 -631h-152l-385 625h-387v-625h-133zM340 739h397q87 0 156 16t121.5 50t81 91t28.5 134q0 150 -101.5 219.5t-274.5 69.5h-408 v-580z" />
<glyph unicode="S" horiz-adv-x="1218" d="M102 145l66 103q106 -63 240 -108.5t251 -45.5q137 0 234.5 67t97.5 191q0 39 -12 74t-30.5 61.5t-52 52t-65 44t-81.5 39t-90 35t-101 34.5q-52 16 -87.5 28.5t-84 33t-80.5 41t-67.5 51t-56.5 64t-34.5 79t-13.5 98.5q0 117 61 202t159 126t220 41q119 0 255 -37.5 t237 -91.5l-63 -102q-96 50 -214.5 82t-211.5 32q-83 0 -150.5 -24.5t-112.5 -81t-45 -137.5q0 -49 20 -89t44 -65t78.5 -51.5t89.5 -39.5t111 -38q28 -9 42 -14q55 -18 94 -31.5t92 -37t89.5 -46.5t76.5 -57t64 -71.5t39.5 -88t15.5 -107.5q0 -95 -40 -170t-107.5 -120.5 t-150 -69t-173.5 -23.5q-141 0 -291 50t-262 118z" />
<glyph unicode="T" horiz-adv-x="1150" d="M49 1317v117h1053v-117h-459v-1317h-133v1317h-461z" />
<glyph unicode="U" horiz-adv-x="1421" d="M193 506v928h133v-928q0 -73 9.5 -130.5t35.5 -111.5t68.5 -89.5t111.5 -57t162 -21.5q91 0 159.5 21.5t110.5 57t68 89.5t35.5 111.5t9.5 130.5v928h133v-928q0 -92 -16 -169t-53.5 -145t-95.5 -114.5t-147.5 -73.5t-203.5 -27q-520 0 -520 529z" />
<glyph unicode="V" horiz-adv-x="1374" d="M55 1434h148l483 -1295l485 1295h148l-561 -1434h-142z" />
<glyph unicode="W" horiz-adv-x="1912" d="M82 1434h145l328 -1280l334 1280h133l334 -1280l330 1280h147l-399 -1434h-150l-330 1243l-327 -1243h-150z" />
<glyph unicode="X" horiz-adv-x="1243" d="M51 0l500 711l-475 723h155l390 -631l391 631h155l-475 -723l500 -711h-160l-411 616l-410 -616h-160z" />
<glyph unicode="Y" horiz-adv-x="1275" d="M45 1434h150l444 -764l442 764h150l-526 -867v-567h-134v567z" />
<glyph unicode="Z" horiz-adv-x="1241" d="M84 0v109l887 1208h-842v117h1004v-109l-891 -1208h901v-117h-1059z" />
<glyph unicode="[" horiz-adv-x="679" d="M190 -295v2013h414v-100h-280v-1813h280v-100h-414z" />
<glyph unicode="\" horiz-adv-x="901" d="M51 1618h111l686 -1802h-111z" />
<glyph unicode="]" horiz-adv-x="679" d="M76 -195h280v1813h-280v100h413v-2013h-413v100z" />
<glyph unicode="^" horiz-adv-x="1308" d="M197 725l391 709h129l393 -709h-145l-312 596l-313 -596h-143z" />
<glyph unicode="_" horiz-adv-x="1441" d="M164 -176h1114v-103h-1114v103z" />
<glyph unicode="`" horiz-adv-x="423" d="M-12 1493h196l250 -262h-108z" />
<glyph unicode="a" horiz-adv-x="1169" d="M109 317q0 90 30.5 160t82.5 111.5t116 62.5t137 21q56 0 128.5 -11t164 -30t104.5 -21v135q0 127 -52 186.5t-185 59.5q-83 0 -176 -24.5t-228 -71.5l-49 100q281 103 463 103q354 0 354 -340v-758h-127v147q-188 -170 -409 -170q-65 0 -124.5 18t-112.5 55.5t-85 106 t-32 160.5zM242 322q0 -119 66.5 -175.5t178.5 -56.5t204 45t181 125v264q-16 3 -69 13.5t-91 17.5t-91.5 13.5t-94.5 6.5q-151 0 -217.5 -70.5t-66.5 -182.5z" />
<glyph unicode="b" horiz-adv-x="1224" d="M180 0v1493h127v-565q183 170 387 170q85 0 156.5 -32t128.5 -97t89 -175.5t32 -256.5t-32 -256t-89 -175t-128.5 -97t-156.5 -32q-210 0 -387 168v-145h-127zM307 270q71 -79 168.5 -130.5t204.5 -51.5q140 0 214.5 119t74.5 330q0 212 -74 331t-215 119 q-107 0 -205 -52t-168 -132v-533z" />
<glyph unicode="c" horiz-adv-x="1064" d="M121 539q0 135 37.5 243.5t102 176t145.5 103.5t172 36q31 0 64 -5t58.5 -10.5t59 -18.5t52.5 -20.5t51.5 -24.5t42.5 -22.5t41 -23.5t32 -19l-64 -96q-4 2 -32.5 19t-47 27.5t-54 27.5t-64.5 27t-65.5 18t-69.5 8q-140 0 -234 -122t-94 -324t94 -325.5t234 -123.5 q33 0 69.5 8t65.5 18t64.5 27t54 27.5t47 27.5t32.5 19l64 -96q-42 -25 -57 -34t-66.5 -35.5t-87 -38.5t-89 -24t-101.5 -12q-91 0 -172 36.5t-145.5 105t-102 177t-37.5 243.5z" />
<glyph unicode="d" horiz-adv-x="1224" d="M123 537q0 146 32 256.5t89 175.5t128.5 97t157.5 32q205 0 388 -170v565h126v-1493h-126v145q-181 -168 -388 -168q-86 0 -157.5 32t-128.5 97t-89 175t-32 256zM256 537q0 -211 73.5 -330t215.5 -119q105 0 202.5 51.5t170.5 130.5v533q-72 80 -169.5 132t-203.5 52 q-142 0 -215.5 -118.5t-73.5 -331.5z" />
<glyph unicode="e" horiz-adv-x="1171" d="M119 539q0 265 136 412t351 147q210 0 325.5 -128.5t115.5 -334.5q0 -34 -2.5 -67t-5.5 -50l-3 -16h-782q9 -189 100 -303.5t230 -114.5q55 0 113.5 14t115.5 41t92 46t82 48l68 -88q-6 -3 -17 -10q-56 -33 -92.5 -52.5t-101 -48t-131 -43t-133.5 -14.5q-94 0 -177 36.5 t-146.5 105t-100.5 177t-37 243.5zM256 594h662q4 204 -78 301.5t-236 97.5q-151 0 -243.5 -108t-104.5 -291z" />
<glyph unicode="f" horiz-adv-x="704" d="M74 973v102h149v178q0 69 16.5 117.5t48 74.5t69 37t85.5 11q107 0 301 -66l-49 -96q-184 49 -239 49q-50 0 -77.5 -26t-27.5 -90v-189h295v-102h-295v-973h-127v973h-149z" />
<glyph unicode="g" horiz-adv-x="1224" d="M123 537q0 146 32 256.5t89 175.5t128.5 97t157.5 32q205 0 388 -170v147h126v-1157q0 -356 -391 -356q-100 0 -232 20t-249 53q17 70 31 113q274 -78 440 -78q136 0 205.5 58.5t69.5 187.5v229q-181 -168 -388 -168q-86 0 -157.5 32t-128.5 97t-89 175t-32 256zM256 537 q0 -211 73.5 -330t215.5 -119q105 0 202.5 51.5t170.5 130.5v533q-72 80 -169.5 132t-203.5 52q-142 0 -215.5 -118.5t-73.5 -331.5z" />
<glyph unicode="h" horiz-adv-x="1228" d="M180 0v1493h127v-578q37 28 78.5 54t103.5 58t133.5 51.5t137.5 19.5q84 0 144.5 -26.5t93 -74t47 -103t14.5 -124.5v-770h-127v750q0 53 -9 94t-31 75t-62.5 52t-98.5 18q-108 0 -230.5 -62.5t-193.5 -127.5v-799h-127z" />
<glyph unicode="i" horiz-adv-x="485" d="M170 1309v178h147v-178h-147zM178 0v1075h127v-1075h-127z" />
<glyph unicode="j" horiz-adv-x="489" d="M-57 -326q48 16 79 26.5t59 24.5l43 21.5t28 25t18 27t8.5 35t3.5 42v54.5v2v1143h129v-1138q0 -128 -13 -172q-21 -72 -102 -116q-68 -38 -210 -75zM174 1309v178h148v-178h-148z" />
<glyph unicode="k" horiz-adv-x="1050" d="M180 0v1493h127v-1026l486 608h147l-362 -436l430 -639h-140l-368 547l-193 -232v-315h-127z" />
<glyph unicode="l" horiz-adv-x="507" d="M190 0v1493h127v-1493h-127z" />
<glyph unicode="m" horiz-adv-x="1873" d="M180 0v1075h127v-164q78 73 186 130t220 57q221 0 278 -205q45 45 101.5 86.5t147 80t173.5 38.5q82 0 140.5 -26.5t90.5 -74t46 -103t14 -124.5v-770h-127v750q0 239 -193 239q-99 0 -201 -62t-179 -141v-786h-127v750q0 239 -193 239q-96 0 -196 -59.5t-181 -138.5 v-791h-127z" />
<glyph unicode="n" horiz-adv-x="1228" d="M180 0v1075h127v-160q37 28 78.5 54t103.5 58t133.5 51.5t137.5 19.5q84 0 144.5 -26.5t93 -74t47 -103t14.5 -124.5v-770h-127v750q0 53 -9 94t-31 75t-62.5 52t-98.5 18q-108 0 -230.5 -62.5t-193.5 -127.5v-799h-127z" />
<glyph unicode="o" horiz-adv-x="1226" d="M123 537q0 263 126.5 412t362.5 149q235 0 362.5 -149t127.5 -412t-127.5 -411.5t-362.5 -148.5q-236 0 -362.5 148.5t-126.5 411.5zM256 537q0 -213 87 -332t269 -119q183 0 271 119t88 332t-88 332.5t-271 119.5q-182 0 -269 -119.5t-87 -332.5z" />
<glyph unicode="p" horiz-adv-x="1224" d="M180 -418v1493h127v-147q179 170 387 170q85 0 156.5 -32t128.5 -97t89 -175.5t32 -256.5t-32 -256t-89 -175t-128.5 -97t-156.5 -32q-210 0 -387 168v-563h-127zM307 270q71 -79 168.5 -130.5t204.5 -51.5q140 0 214.5 119t74.5 330q0 212 -74 331t-215 119 q-107 0 -205 -52t-168 -132v-533z" />
<glyph unicode="q" horiz-adv-x="1224" d="M123 537q0 146 32 256.5t89 175.5t128.5 97t157.5 32q205 0 388 -170v147h126v-1493h-126v563q-181 -168 -388 -168q-86 0 -157.5 32t-128.5 97t-89 175t-32 256zM256 537q0 -211 73.5 -330t215.5 -119q105 0 202.5 51.5t170.5 130.5v533q-72 80 -169.5 132t-203.5 52 q-142 0 -215.5 -118.5t-73.5 -331.5z" />
<glyph unicode="r" horiz-adv-x="772" d="M180 0v1075h127v-231q6 16 19.5 40.5t48 64.5t77.5 71t113.5 52t151.5 15v-122q-75 0 -138 -18.5t-104 -48.5t-73 -66t-49.5 -72t-28.5 -66t-14 -48l-3 -19v-627h-127z" />
<glyph unicode="s" horiz-adv-x="1034" d="M102 106l60 97q87 -49 193.5 -84t195.5 -35q103 0 180.5 46.5t77.5 133.5q0 24 -7.5 46t-17.5 38.5t-31 33.5t-35 27.5t-45 24t-45.5 20t-50.5 17.5t-47 14t-47 13q-43 12 -72 21t-70 24.5t-68.5 31.5t-57.5 40t-48 51.5t-30 64.5t-12 80q0 136 101.5 211.5t262.5 75.5 q188 0 402 -107l-60 -92q-188 92 -342 92q-103 0 -170 -45.5t-67 -126.5q0 -28 10 -53t23 -42.5t38 -34t44 -26.5t52.5 -21.5t51 -16.5t50.5 -14q18 -5 26 -7q200 -54 294.5 -129.5t94.5 -204.5q0 -74 -31 -131.5t-85 -92t-120.5 -52t-142.5 -17.5q-120 0 -241 38.5 t-214 90.5z" />
<glyph unicode="t" horiz-adv-x="757" d="M76 973v102h149v271l127 40v-311h297v-102h-297v-764q0 -119 105 -119q76 0 215 57l51 -98q-51 -24 -131 -48t-148 -24q-219 0 -219 240v756h-149z" />
<glyph unicode="u" horiz-adv-x="1228" d="M170 305v770h127v-749q0 -53 9 -94t31 -75.5t62.5 -52.5t98.5 -18q73 0 163.5 35.5t152.5 75t108 77.5v801h127v-1075h-127v158q-36 -27 -79 -53.5t-104.5 -57.5t-133.5 -50.5t-138 -19.5q-83 0 -143 26.5t-92.5 74t-47 103t-14.5 124.5z" />
<glyph unicode="v" horiz-adv-x="1124" d="M66 1075h141l354 -938l354 938h144l-434 -1075h-125z" />
<glyph unicode="w" horiz-adv-x="1658" d="M80 1075h137l270 -936l279 936h127l276 -936l273 936h135l-340 -1075h-129l-279 920l-278 -920h-131z" />
<glyph unicode="x" horiz-adv-x="1167" d="M53 0l457 541l-434 534h155l353 -454l348 454h158l-435 -534l459 -541h-162l-370 463l-367 -463h-162z" />
<glyph unicode="y" horiz-adv-x="1126" d="M68 1075h141l354 -921l355 921h143l-608 -1493h-142l189 424z" />
<glyph unicode="z" horiz-adv-x="1021" d="M94 0v104l670 861h-649v110h805v-104l-666 -860h666v-111h-826z" />
<glyph unicode="{" horiz-adv-x="800" d="M63 647v131q110 0 164.5 58.5t34.5 199.5l-26 191q-32 235 80 363t374 128h37v-100h-37q-362 0 -319 -365l28 -194q37 -291 -196 -346q233 -58 196 -346l-28 -195q-5 -59 -3.5 -113t22.5 -100t56 -80t97.5 -53t146.5 -19h37v-100h-37q-262 0 -374 128.5t-80 363.5l26 190 q20 141 -34.5 199.5t-164.5 58.5z" />
<glyph unicode="|" horiz-adv-x="491" d="M193 -252v1927h106v-1927h-106z" />
<glyph unicode="}" horiz-adv-x="800" d="M74 -193h37q362 0 319 365l-29 195q-37 291 197 346q-234 58 -197 346l29 194q5 59 3.5 113t-22.5 100t-56 80t-97.5 53t-146.5 19h-37v100h37q262 0 374 -128t80 -363l-26 -191q-20 -141 34 -199.5t164 -58.5v-131q-110 0 -164 -58.5t-34 -199.5l26 -190 q32 -235 -80 -363.5t-374 -128.5h-37v100z" />
<glyph unicode="~" d="M111 475q105 219 301 219q68 0 139 -23.5t121.5 -52t116.5 -52t124 -23.5q57 0 104.5 28t90.5 109l94 -39q-103 -217 -299 -217q-68 0 -140 23.5t-123 52t-116.5 52t-122.5 23.5q-56 0 -101.5 -28t-92.5 -109z" />
<glyph unicode="&#xad;" horiz-adv-x="888" d="M164 524v117h559v-117h-559z" />
<glyph unicode="&#x2000;" horiz-adv-x="859" />
<glyph unicode="&#x2001;" horiz-adv-x="1718" />
<glyph unicode="&#x2002;" horiz-adv-x="859" />
<glyph unicode="&#x2003;" horiz-adv-x="1718" />
<glyph unicode="&#x2004;" horiz-adv-x="572" />
<glyph unicode="&#x2005;" horiz-adv-x="429" />
<glyph unicode="&#x2006;" horiz-adv-x="286" />
<glyph unicode="&#x2007;" horiz-adv-x="286" />
<glyph unicode="&#x2008;" horiz-adv-x="214" />
<glyph unicode="&#x2009;" horiz-adv-x="343" />
<glyph unicode="&#x200a;" horiz-adv-x="95" />
<glyph unicode="&#x2010;" horiz-adv-x="888" d="M164 524v117h559v-117h-559z" />
<glyph unicode="&#x2011;" horiz-adv-x="888" d="M164 524v117h559v-117h-559z" />
<glyph unicode="&#x2012;" horiz-adv-x="888" d="M164 524v117h559v-117h-559z" />
<glyph unicode="&#x2013;" horiz-adv-x="1353" d="M164 524v117h1024v-117h-1024z" />
<glyph unicode="&#x2014;" horiz-adv-x="2377" d="M164 524v117h2048v-117h-2048z" />
<glyph unicode="&#x202f;" horiz-adv-x="343" />
<glyph unicode="&#x205f;" horiz-adv-x="429" />
<glyph unicode="&#xe000;" horiz-adv-x="1075" d="M0 0v1075h1075v-1075h-1075z" />
</font>
</defs>
</svg>
